Avril Lavigne - The Best Damn Thing (2007) Flac

  • Category Music
  • Type Lossless
  • Language English
  • Total size 469.9 MB
  • Uploaded By was95was
  • Downloads 94
  • Last checked 3 weeks ago
  • Date uploaded 1 month ago
  • Seeders 12
  • Leechers 6

Infohash : D6BED6F3283475668B467D5C136D0E94A6E25F14



Quality-Lossless
Release-2007
Duration-00:40:33
File Size-492.7 MB
Genre-Rock
Cover Size-1400px

----------------------------------------------------------------------------------------------
Analyzed: The Best Damn Thing / Artist: Avril Lavigne
----------------------------------------------------------------------------------------------
DR Peak RMS Duration Title [codec]
----------------------------------------------------------------------------------------------
DR5 -0.10 dB -7.13 dB 3:37 01 - Girlfriend [Radio Edit] [flac]
DR6 -0.01 dB -6.49 dB 3:16 02 - I Can Do Better [flac]
DR5 -0.00 dB -6.55 dB 3:48 03 - Runaway [flac]
DR5 -0.01 dB -6.70 dB 3:10 04 - The Best Damn Thing [flac]
DR5 -0.01 dB -8.23 dB 4:00 05 - When You're Gone [flac]
DR5 -0.01 dB -6.43 dB 3:02 06 - Everything Back But You [flac]
DR5 -0.10 dB -7.92 dB 3:23 07 - Hot [flac]
DR5 -0.14 dB -7.47 dB 3:53 08 - Innocence [flac]
DR4 -0.01 dB -6.39 dB 3:16 09 - I Don't Have To Try [flac]
DR4 -0.20 dB -5.37 dB 2:56 10 - One Of Those Girls [flac]
DR5 -0.10 dB -6.97 dB 2:10 11 - Contagious [flac]
DR4 -0.14 dB -6.03 dB 3:58 12 - Keep Holding On [flac]
----------------------------------------------------------------------------------------------
Number of files: 12
Official DR value: DR5

Sampling rate: 44100 Hz
Average bitrate: 1087kbs
Bits per sample: 16 bit

Files:

Avril Lavigne - The Best Damn Thing (2007) Flac
  • 01 - Girlfriend [Radio Edit].flac (29.0 MB)
  • 02 - I Can Do Better.flac (25.8 MB)
  • 03 - Runaway.flac (30.6 MB)
  • 04 - The Best Damn Thing.flac (25.4 MB)
  • 05 - When You're Gone.flac (28.4 MB)
  • 06 - Everything Back But You.flac (24.8 MB)
  • 07 - Hot.flac (25.9 MB)
  • 08 - Innocence.flac (29.1 MB)
  • 09 - I Don't Have To Try.flac (25.9 MB)
  • 10 - One Of Those Girls.flac (22.5 MB)
  • 11 - Contagious.flac (16.8 MB)
  • 12 - Keep Holding On.flac (31.5 MB)
  • [TGx]Downloaded from torrentgalaxy.org .txt (0.6 KB)
  • cover.jpg (669.8 KB)
  • Covers
    • 01.jpg (14.3 MB)
    • 02.jpg (13.0 MB)
    • 03.jpg (15.2 MB)
    • 04.jpg (11.3 MB)
    • 05.jpg (15.8 MB)
    • 06.jpg (12.9 MB)
    • 07.jpg (14.4 MB)
    • 08.jpg (13.7 MB)
    • 09.jpg (14.6 MB)
    • b.jpg (5.8 MB)
    • CD.jpg (922.9 KB)
    • f.jpg (10.9 MB)
    • in.jpg (10.4 MB)
    • Matrix.jpg (126.6 KB)
  • dr14.txt (1.4 KB)
  • Torrent Downloaded from Glodls.to.txt (0.2 KB)
  • Torrent downloaded from limetorrents.cc.txt (0.1 KB)
  • Torrent Downloaded from worldwidetorrents.to (0.1 KB)

There are currently no comments. Feel free to leave one :)

Code:

  • udp://tracker.piratepublic.com:1337/announce
  • udp://tracker.pirateparty.gr:6969/announce
  • udp://tracker.coppersurfer.tk:6969/announce
  • udp://tracker.leechers-paradise.org:6969/announce
  • udp://9.rarbg.com:2710/announce
  • http://p4p.arenabg.com:1337/announce
  • http://explodie.org:6969/announce
  • udp://tracker.opentrackr.org:1337/announce
  • udp://exodus.desync.com:6969/announce
  • udp://tracker.leechers-paradise.org:6969/announce
  • udp://tracker.zer0day.to:1337/announce
  • udp://open.demonii.si:1337/announce
  • udp://exodus.desync.com:6969/announce
  • udp://tracker.iamhansen.xyz:2000/announce
Do not risk it! Protect yourself right now by downloading Free VPN

Download Free VPN