Celine Dion - Taking Chances (Deluxe Edition) (2007) Flac

  • Category Music
  • Type Lossless
  • Language English
  • Total size 638.0 MB
  • Uploaded By was95was
  • Downloads 203
  • Last checked 1 month ago
  • Date uploaded 1 month ago
  • Seeders 11
  • Leechers 3

Infohash : F510EA01ABF44E4E04A2CE4D2F44D5EFD535840C



Quality-Lossless
Release-2007
Duration-01:05:34
File Size-669.0 MB
Genre-Pop
Cover Size-1400px

----------------------------------------------------------------------------------------------
Analyzed: Taking Chances (Deluxe Edition) / Artist: Celine Dion
----------------------------------------------------------------------------------------------
DR Peak RMS Duration Title [codec]
----------------------------------------------------------------------------------------------
DR5 -0.10 dB -9.19 dB 4:03 01 - Taking Chances [flac]
DR6 -0.20 dB -9.95 dB 3:24 02 - Alone [flac]
DR7 -0.00 dB -9.02 dB 3:54 03 - Eyes On Me [flac]
DR7 -0.00 dB -11.17 dB 4:08 04 - My Love [flac]
DR5 -0.00 dB -7.38 dB 4:09 05 - Shadow Of Love [flac]
DR5 -0.00 dB -7.49 dB 5:12 06 - Surprise Surprise [flac]
DR7 -0.10 dB -9.75 dB 3:46 07 - This Time [flac]
DR5 -0.10 dB -9.82 dB 4:45 08 - New Dawn [flac]
DR10 -0.20 dB -14.11 dB 3:25 09 - A Song For You [flac]
DR5 -0.10 dB -9.26 dB 4:08 10 - A World To Believe In [flac]
DR6 -0.00 dB -7.20 dB 3:50 11 - Can't Fight The Feelin' [flac]
DR7 -0.00 dB -10.14 dB 4:20 12 - I Got Nothin' Left [flac]
DR6 -0.10 dB -9.48 dB 4:09 13 - Right Next To The Right One [flac]
DR6 -0.10 dB -8.43 dB 3:16 14 - Fade Away [flac]
DR6 -0.10 dB -8.46 dB 4:33 15 - That's Just The Woman In Me [flac]
DR11 -0.80 dB -16.34 dB 4:23 16 - Skies Of L.A. [flac]
----------------------------------------------------------------------------------------------
Number of files: 16
Official DR value: DR7

Sampling rate: 44100 Hz
Average bitrate: 978kbs
Bits per sample: 16 bit

Files:

Celine Dion - Taking Chances (Deluxe Edition) (2007) Flac
  • 01 - Taking Chances.flac (28.4 MB)
  • 02 - Alone.flac (24.2 MB)
  • 03 - Eyes On Me.flac (29.3 MB)
  • 04 - My Love.flac (28.5 MB)
  • 05 - Shadow Of Love.flac (31.5 MB)
  • 06 - Surprise Surprise.flac (42.1 MB)
  • 07 - This Time.flac (27.7 MB)
  • 08 - New Dawn.flac (31.4 MB)
  • 09 - A Song For You.flac (17.8 MB)
  • 10 - A World To Believe In.flac (29.2 MB)
  • 11 - Can't Fight The Feelin'.flac (31.0 MB)
  • 12 - I Got Nothin' Left.flac (29.4 MB)
  • 13 - Right Next To The Right One.flac (26.6 MB)
  • 14 - Fade Away.flac (25.6 MB)
  • 15 - That's Just The Woman In Me.flac (32.5 MB)
  • 16 - Skies Of L.A..flac (25.4 MB)
  • [TGx]Downloaded from torrentgalaxy.org .txt (0.6 KB)
  • cover.jpg (1.3 MB)
  • dr14.txt (1.7 KB)
  • SCANS
    • booklet1.tif (12.3 MB)
    • booklet2.tif (12.1 MB)
    • booklet3.tif (12.3 MB)
    • booklet4.tif (12.2 MB)
    • booklet5.tif (12.3 MB)
    • booklet6.tif (12.3 MB)
    • booklet7.tif (12.2 MB)
    • booklet8.tif (12.3 MB)
    • booklet9.tif (12.4 MB)
    • booklet_cover.tif (12.4 MB)
    • cd.tif (6.0 MB)
    • digipak_cover.tif (13.9 MB)
    • digipak_inside1.tif (6.8 MB)
    • digipak_inside2.tif (13.8 MB)
    • digipak_inside3.tif (6.5 MB)
    • dvd.tif (6.0 MB)
    • preview.jpg (185.7 KB)
  • Torrent Downloaded from Glodls.to.txt (0.2 KB)
  • Torrent downloaded from limetorrents.cc.txt (0.1 KB)
  • Torrent Downloaded from worldwidetorrents.to (0.1 KB)

There are currently no comments. Feel free to leave one :)

Code:

  • udp://tracker.piratepublic.com:1337/announce
  • udp://tracker.pirateparty.gr:6969/announce
  • udp://tracker.coppersurfer.tk:6969/announce
  • udp://tracker.leechers-paradise.org:6969/announce
  • udp://9.rarbg.com:2710/announce
  • http://p4p.arenabg.com:1337/announce
  • http://explodie.org:6969/announce
  • udp://tracker.opentrackr.org:1337/announce
  • udp://exodus.desync.com:6969/announce
  • udp://tracker.leechers-paradise.org:6969/announce
  • udp://tracker.zer0day.to:1337/announce
  • udp://open.demonii.si:1337/announce
  • udp://exodus.desync.com:6969/announce
  • udp://tracker.iamhansen.xyz:2000/announce
Do not risk it! Protect yourself right now by downloading Free VPN

Download Free VPN