Kelly Rowland - Ms. Kelly (2007) Flac

  • Category Music
  • Type Lossless
  • Language English
  • Total size 313.8 MB
  • Uploaded By was95was
  • Downloads 111
  • Last checked 3 weeks ago
  • Date uploaded 4 weeks ago
  • Seeders 5
  • Leechers 2

Infohash : 8B3AB4CA7D284463041900842312364B894204D7



Quality-Lossless
Release-2007
Duration-00:46:21
File Size-329.1 MB
Genre-R&B
Cover Size-1500px

----------------------------------------------------------------------------------------------
Analyzed: Ms. Kelly / Artist: Kelly Rowland
----------------------------------------------------------------------------------------------
DR Peak RMS Duration Title [codec]
----------------------------------------------------------------------------------------------
DR6 -0.01 dB -7.58 dB 3:35 01 - Like This (feat. Eve) [flac]
DR7 -0.01 dB -7.73 dB 3:25 02 - Comeback [flac]
DR6 -0.01 dB -6.84 dB 2:54 03 - Ghetto (feat. Snoop Dogg) [flac]
DR5 -0.01 dB -7.29 dB 3:28 04 - Work [flac]
DR7 -0.01 dB -8.91 dB 4:20 05 - Flashback [flac]
DR6 -0.00 dB -8.34 dB 3:56 06 - Every Thought Is You [flac]
DR5 -0.01 dB -7.16 dB 3:35 07 - The Show (feat. Tank) [flac]
DR11 -1.75 dB -19.88 dB 1:00 08 - Interlude [flac]
DR6 -0.01 dB -8.44 dB 3:37 09 - Still In Love With My Ex [flac]
DR8 -0.01 dB -10.77 dB 3:50 10 - Love [flac]
DR7 -0.00 dB -9.55 dB 3:56 11 - Better Without You [flac]
DR9 -0.00 dB -13.14 dB 4:50 12 - This Is Love [flac]
DR8 -0.13 dB -9.47 dB 3:48 13 - Gotsta Go (Part 1) (feat. Da Brat) (radio edit) [flac]
----------------------------------------------------------------------------------------------
Number of files: 13
Official DR value: DR7

Sampling rate: 44100 Hz
Average bitrate: 931kbs
Bits per sample: 16 bit

Files:

Kelly Rowland - Ms. Kelly (2007) Flac
  • 01 - Like This (feat. Eve).flac (24.9 MB)
  • 02 - Comeback.flac (24.4 MB)
  • 03 - Ghetto (feat. Snoop Dogg).flac (20.9 MB)
  • 04 - Work.flac (24.2 MB)
  • 05 - Flashback.flac (31.1 MB)
  • 06 - Every Thought Is You.flac (24.6 MB)
  • 07 - The Show (feat. Tank).flac (26.1 MB)
  • 08 - Interlude.flac (4.6 MB)
  • 09 - Still In Love With My Ex.flac (24.5 MB)
  • 10 - Love.flac (25.4 MB)
  • 11 - Better Without You.flac (25.8 MB)
  • 12 - This Is Love.flac (26.7 MB)
  • 13 - Gotsta Go (Part 1) (feat. Da Brat) (radio edit).flac (30.3 MB)
  • [TGx]Downloaded from torrentgalaxy.org .txt (0.6 KB)
  • cover.jpg (205.5 KB)
  • dr14.txt (1.5 KB)
  • Torrent Downloaded from Glodls.to.txt (0.2 KB)
  • Torrent downloaded from limetorrents.cc.txt (0.1 KB)
  • Torrent Downloaded from worldwidetorrents.to (0.1 KB)

There are currently no comments. Feel free to leave one :)

Code:

  • udp://tracker.piratepublic.com:1337/announce
  • udp://tracker.pirateparty.gr:6969/announce
  • udp://tracker.coppersurfer.tk:6969/announce
  • udp://tracker.leechers-paradise.org:6969/announce
  • udp://9.rarbg.com:2710/announce
  • http://p4p.arenabg.com:1337/announce
  • http://explodie.org:6969/announce
  • udp://tracker.opentrackr.org:1337/announce
  • udp://exodus.desync.com:6969/announce
  • udp://tracker.leechers-paradise.org:6969/announce
  • udp://tracker.zer0day.to:1337/announce
  • udp://open.demonii.si:1337/announce
  • udp://exodus.desync.com:6969/announce
  • udp://tracker.iamhansen.xyz:2000/announce
Do not risk it! Protect yourself right now by downloading Free VPN

Download Free VPN