+18 Jaoon Kahan Bata Ae Dil 2019 x264 720p HD Hindi GOPISAHI

  • Category Movies
  • Type Bollywood
  • Language Hindi
  • Total size 683.1 MB
  • Uploaded By PENDUDESI
  • Downloads 7568
  • Last checked 5 days ago
  • Date uploaded 1 week ago
  • Seeders 192
  • Leechers 88

Infohash : 830C1D5304EDBABD44FF1CE9033522AC4577BA1E

https://www.gopisahi.xyz/



+18 Jaoon Kahan Bata Ae Dil 2019 x264 720p HD Hindi GOPISAHI

Format : Matroska
Format version : Version 4
File size : 683 MiB
Duration : 1 h 46 min
Overall bit rate : 896 kb/s
Movie name : Jaoon Kahan Bata Ae Dil 2019 GOPISAHI

Video
ID : 1
Format : AVC
Format/Info : Advanced Video Codec
Format profile : [email protected]
Format settings : CABAC / 9 Ref Frames
Format settings, CABAC : Yes
Format settings, Reference fra : 9 frames
Codec ID : V_MPEG4/ISO/AVC
Duration : 1 h 46 min
Bit rate : 799 kb/s
Width : 1 280 pixels
Height : 674 pixels
Display aspect ratio : 1.899
Frame rate mode : Constant
Frame rate : 24.000 FPS
Color space : YUV
Chroma subsampling : 4:2:0
Bit depth : 8 bits
Scan type : Progressive
Bits/(Pixel*Frame) : 0.039
Stream size : 609 MiB (89%)
Title : GOPISAHI
Writing library : x264 core 157 r2935 545de2f

Audio
Format : AAC LC
Duration : 1 h 46 min
Bit rate : 96.0 kb/s
Channel(s) : 2 channels
Channel layout : L R
Sampling rate : 48.0 kHz
Frame rate : 46.875 FPS (1024 SPF)
Compression mode : Lossy
Delay relative to video : -42 ms
Stream size : 72.5 MiB (11%)
Title : GOPISAHI
Language : Hindi

Text
Language : English





Files:

  • +18 Jaoon Kahan Bata Ae Dil 2019 x264 720p HD Hindi GOPISAHI.mkv (683.1 MB)

Comments

Code:

  • udp://tracker.coppersurfer.tk:6969/announce
  • udp://tracker.opentrackr.org:1337/announce
  • udp://explodie.org:6969/announce
  • udp://9.rarbg.to:2790/announce
  • udp://bt.xxx-tracker.com:2710/announce
  • udp://tracker.internetwarriors.net:1337/announce
  • udp://tracker.openbittorrent.com:80/announce
  • udp://tracker.tiny-vps.com:6969/announce
  • udp://open.demonii.si:1337/announce
  • udp://tracker.torrent.eu.org:451/announce
  • udp://tracker.pirateparty.gr:6969/announce
  • udp://ipv4.tracker.harry.lu:80/announce
  • udp://tracker.cyberia.is:6969/announce
  • udp://9.rarbg.to:2790/announce
Do not risk it! Protect yourself right now by downloading Free VPN

Download Free VPN