Rod Stewart - Time (2013) (Deluxe Edition) [24bit Hi-Res]

  • Category Music
  • Type Lossless
  • Language English
  • Total size 749.1 MB
  • Uploaded By was95was
  • Downloads 209
  • Last checked 55 minutes ago
  • Date uploaded 22 hours ago
  • Seeders 20
  • Leechers 3

Infohash : B1023B36857C52746BD163B33060B6E86AAC3E6B



Quality-Lossless
Release-2013
Duration-01:01:30
File Size-433.1 MB
Genre-Rock
Cover Size-1400px

----------------------------------------------------------------------------------------------
Analyzed: Time (Deluxe Edition) / Artist: Rod Stewart
----------------------------------------------------------------------------------------------
DR Peak RMS Duration Title [codec]
----------------------------------------------------------------------------------------------
DR7 -0.00 dB -8.33 dB 3:43 01 - She Makes Me Happy [flac]
DR6 -0.06 dB -8.38 dB 4:25 02 - Can't Stop Me Now [flac]
DR7 -0.09 dB -10.56 dB 4:19 03 - It's Over [flac]
DR9 -0.36 dB -12.06 dB 4:25 04 - Brighton Beach [flac]
DR6 -0.00 dB -7.73 dB 3:58 05 - Beautiful Morning [flac]
DR7 -0.01 dB -8.98 dB 4:25 06 - Live The Life [flac]
DR7 -0.00 dB -8.25 dB 3:54 07 - Finest Woman [flac]
DR7 -0.04 dB -8.61 dB 4:25 08 - Time [flac]
DR9 -0.41 dB -12.60 dB 2:53 09 - Picture In A Frame [flac]
DR6 -0.00 dB -7.82 dB 4:45 10 - Sexual Religion [flac]
DR6 -0.04 dB -8.85 dB 3:43 11 - Make Love To Me Tonight [flac]
DR7 -0.07 dB -11.83 dB 5:09 12 - Pure Love [flac]
DR8 -0.35 dB -11.01 dB 3:25 13 - Corrina Corrina (Bonus Track) [flac]
DR6 -0.13 dB -7.40 dB 3:50 14 - Legless (Bonus Track) [flac]
DR8 -0.36 dB -11.25 dB 4:04 15 - Love Has No Pride (Bonus Track) [flac]
----------------------------------------------------------------------------------------------
Number of files: 15
Official DR value: DR7

Sampling rate: 44100 Hz
Average bitrate: 1692kbs
Bits per sample: 24 bit

Files:

Rod Stewart - Time (2013) (Deluxe Edition) [24bit Hi-Res]
  • 01 - She Makes Me Happy.flac (48.4 MB)
  • 02 - Can't Stop Me Now.flac (55.0 MB)
  • 03 - It's Over.flac (52.1 MB)
  • 04 - Brighton Beach.flac (50.1 MB)
  • 05 - Beautiful Morning.flac (52.0 MB)
  • 06 - Live The Life.flac (56.2 MB)
  • 07 - Finest Woman.flac (48.3 MB)
  • 08 - Time.flac (52.6 MB)
  • 09 - Picture In A Frame.flac (32.2 MB)
  • 10 - Sexual Religion.flac (59.9 MB)
  • 11 - Make Love To Me Tonight.flac (47.1 MB)
  • 12 - Pure Love.flac (56.5 MB)
  • 13 - Corrina Corrina (Bonus Track).flac (41.2 MB)
  • 14 - Legless (Bonus Track).flac (48.5 MB)
  • 15 - Love Has No Pride (Bonus Track).flac (45.8 MB)
  • [TGx]Downloaded from torrentgalaxy.org .txt (0.6 KB)
  • cover.jpg (730.5 KB)
  • dr14.txt (1.6 KB)
  • front.jpg (2.5 MB)
  • Torrent Downloaded from Glodls.to.txt (0.2 KB)
  • Torrent downloaded from limetorrents.cc.txt (0.1 KB)
  • Torrent Downloaded from worldwidetorrents.to (0.1 KB)

There are currently no comments. Feel free to leave one :)

Code:

  • udp://tracker.piratepublic.com:1337/announce
  • udp://tracker.pirateparty.gr:6969/announce
  • udp://tracker.coppersurfer.tk:6969/announce
  • udp://tracker.leechers-paradise.org:6969/announce
  • udp://9.rarbg.com:2710/announce
  • http://p4p.arenabg.com:1337/announce
  • http://explodie.org:6969/announce
  • udp://tracker.opentrackr.org:1337/announce
  • udp://exodus.desync.com:6969/announce
  • udp://tracker.leechers-paradise.org:6969/announce
  • udp://tracker.zer0day.to:1337/announce
  • udp://open.demonii.si:1337/announce
  • udp://exodus.desync.com:6969/announce
  • udp://tracker.iamhansen.xyz:2000/announce
Do not risk it! Protect yourself right now by downloading Free VPN

Download Free VPN