Chappie 2015 720p BluRay x264 Dual Audio [Hindi DD 2.0 - English ...

  • Category Movies
  • Type Dubs/Dual Audio
  • Language Hindi
  • Total size 1.0 GB
  • Uploaded By moviezworldz
  • Downloads 583
  • Last checked 3 days ago
  • Date uploaded 1 week ago
  • Seeders 17
  • Leechers 6

Chappie

ActionScience FictionThriller

Every child comes into the world full of promise, and none more so than Chappie: he is gifted, special, a prodigy. Like any child, Chappie will come under the influence of his surroundings—some good, some bad—and he will rely on his heart and soul to find his way in the world and become his own man. But there's one thing that makes Chappie different from any one else: he is a robot.

Infohash : 0979D4968701D0C49885810C8EFEF10A6DF1E585





General
Format : Matroska
Format version : Version 4
File size : 1.04 GiB
Duration : 2 h 0 min
Overall bit rate : 1 241 kb/s

Video
ID : 1
Format : AVC
Format/Info : Advanced Video Codec
Format profile : [email protected]
Format settings : CABAC / 4 Ref Frames
Format settings, CABAC : Yes
Format settings, Reference frames : 4 frames
Codec ID : V_MPEG4/ISO/AVC
Duration : 2 h 0 min
Bit rate : 910 kb/s
Width : 1 280 pixels
Height : 536 pixels
Display aspect ratio : 2.40:1
Frame rate mode : Constant
Frame rate : 23.976 (24000/1001) FPS
Original frame rate : 23.976 (23976/1000) FPS
Color space : YUV
Chroma subsampling : 4:2:0
Bit depth : 8 bits
Scan type : Progressive
Bits/(Pixel*Frame) : 0.055
Stream size : 783 MiB (73%)
Writing library : x264 core 123 r2189 35cf912

Audio #1
ID : 2
Format : AC-3
Format/Info : Audio Coding 3
Commercial name : Dolby Digital
Codec ID : A_AC3
Duration : 2 h 0 min
Bit rate mode : Constant
Bit rate : 224 kb/s
Channel(s) : 2 channels
Channel layout : L R
Sampling rate : 48.0 kHz
Frame rate : 31.250 FPS (1536 SPF)
Bit depth : 16 bits
Compression mode : Lossy
Stream size : 193 MiB (18%)
Language : Hindi
Service kind : Complete Main
Default : Yes
Forced : No

Audio #2
ID : 3
Format : AAC LC
Codec ID : A_AAC-2
Duration : 2 h 0 min
Bit rate : 93.7 kb/s
Channel(s) : 2 channels
Channel layout : L R
Sampling rate : 48.0 kHz
Frame rate : 46.875 FPS (1024 SPF)
Compression mode : Lossy
Stream size : 80.6 MiB (8%)
Language : English
Default : No
Forced : No

Text #1
ID : 4
Format : VobSub
Muxing mode : zlib
Codec ID : S_VOBSUB
Codec ID/Info : Picture based subtitle format used on DVDs
Duration : 1 h 52 min
Bit rate : 10.0 kb/s
Count of elements : 1602
Stream size : 8.06 MiB (1%)
Language : English
Default : Yes
Forced : No


Click To View Image








Files:

Chappie 2015 720p BluRay x264 Dual Audio [Hindi DD 2.0 - English 2.0] ESub [MW]
  • Chappie 2015 720p BluRay x264 Dual Audio [Hindi DD 2.0 - English 2.0] ESub [MW].mkv (1.0 GB)

Comments

Code:

  • udp://tracker.openbittorrent.com:80/announce
  • udp://tracker.opentrackr.org:1337/announce
  • udp://tracker.coppersurfer.tk:6969/announce
  • udp://tracker.leechers-paradise.org:6969/announce
  • udp://tracker.internetwarriors.net:1337/announce
  • udp://tracker.opentrackr.org:1337/announce
  • udp://9.rarbg.to:2750/announce
  • udp://exodus.desync.com:6969/announce
  • udp://tracker1.itzmx.com:8080/announce
  • udp://explodie.org:6969/announce
  • http://tracker3.itzmx.com:6961/announce
  • udp://tracker.port443.xyz:6969/announce
  • udp://tracker.torrent.eu.org:451/announce
Do not risk it! Protect yourself right now by downloading Free VPN

Download Free VPN